JAPAN SUFFERING

EL MEJOR FORO DE DESCARGAS DE MUSICA, JUEGOS Y VIDEOS.

JAPAN SUFFERING FORO DE CALIDAD Y CANTIDAD, SOMOS MAS QUE SOLO UN FORO...

    Mad Max Fury Road (2015) 3D H-SBS 1080p (Ing-Lat)

    Comparte

    pomposos
    JS Guest
    JS Guest

    Mensajes : 5619
    Reputación : 0
    Fecha de inscripción : 29/10/2013

    Mad Max Fury Road (2015) 3D H-SBS 1080p (Ing-Lat)

    Mensaje por pomposos el Dom Mayo 28, 2017 3:07 pm




    Titulo original: Mad Max: Fury Road
    Ano: 2015
    Duracion: 120 min.
    Pais: Australia
    Director: George Miller
    Guion: Nick Lathouris, Brendan McCarthy, George Miller
    Musica: Junkie XL
    Fotografia: John Seale
    Reparto: Tom Hardy, Charlize Theron, Nicholas Hoult, Hugh Keays-Byrne, Angus Sampson, Zoe Kravitz, Rosie Huntington-Whiteley, Nathan Jones, Riley Keough, Abbey Lee, Courtney Eaton, Josh Helman, Megan Gale, Melissa Jaffer, Stephen Dunlevy
    Productora: Coproduccion Australia-USA; Kennedy Miller Productions / Icon Productions
    Genero: Ciencia ficcion. Accion | Futuro postapocaliptico. Western futurista. 3-D. Secuela
    Sinopsis: Perseguido por su turbulento pasado, Mad Max cree que la mejor forma de sobrevivir es ir solo por el mundo. Sin embargo, se ve arrastrado a formar parte de un grupo que huye a traves del desierto en un War Rig conducido por una Emperatriz de elite: Furiosa. Escapan de una Ciudadela tiranizada por Immortan Joe, a quien han arrebatado algo irreemplazable. Enfurecido, el Senor de la Guerra moviliza a todas sus bandas y persigue implacablemente a los rebeldes en una "guerra de la carretera" de altas revoluciones... Cuarta entrega de la saga post-apocaliptica que resucita la trilogia que a principios de los ochenta protagonizo Mel Gibson.
    Código:
    http://www.imdb.com/title/tt1392190/
    Trailer
    [Tienes que estar registrado y conectado para ver este vínculo]


    General
    Format : Matroska
    Format version : Version 4 / Version 2
    File size : 13.2 GiB
    Duration : 2h 0mn
    Overall bit rate mode : Variable
    Overall bit rate : 15.6 Mbps
    Encoded date : UTC 2015-08-15 14:40:52
    Writing application : mkvmerge v7.1.0 (Good Love) 64bit built on Jul 27 2014 13:06:55
    Writing library : libebml v1.3.0 + libmatroska v1.4.1
    Video
    ID : 1
    Format : AVC
    Format/Info : Advanced Video Codec
    Format profile : High@L4.1
    MultiView_Count : 2
    MultiView_Layout : Side by Side (left eye first)
    Format settings, CABAC : Yes
    Format settings, ReFrames : 5 frames
    Codec ID : V_MPEG4/ISO/AVC
    Duration : 2h 0mn
    Nominal bit rate : 8 806 Kbps
    Width : 1 920 pixels
    Height : 800 pixels
    Display aspect ratio : 2.40:1
    Frame rate mode : Constant
    Frame rate : 23.976 fps
    Color space : YUV
    Chroma subsampling : 4:2:0
    Bit depth : 8 bits
    Scan type : Progressive
    Bits/(Pixel*Frame) : 0.239
    Writing library : x264 core 148 r2579 73ae2d1
    Language : English
    Default : Yes
    Forced : No
    Audio #1
    ID : 2
    Format : AC-3
    Format/Info : Audio Coding 3
    Mode extension : CM (complete main)
    Format settings, Endianness : Big
    Codec ID : A_AC3
    Duration : 2h 0mn
    Bit rate mode : Constant
    Bit rate : 448 Kbps
    Channel(s) : 6 channels
    Channel positions : Front: L C R, Side: L R, LFE
    Sampling rate : 48.0 KHz
    Bit depth : 16 bits
    Compression mode : Lossy
    Stream size : 386 MiB (3%)
    Title : ac3 5.1 Bluray
    Language : Spanish
    Default : Yes
    Forced : No
    Audio #2
    ID : 3
    Format : AC-3
    Format/Info : Audio Coding 3
    Mode extension : CM (complete main)
    Format settings, Endianness : Big
    Codec ID : A_AC3
    Duration : 2h 0mn
    Bit rate mode : Constant
    Bit rate : 640 Kbps
    Channel(s) : 6 channels
    Channel positions : Front: L C R, Side: L R, LFE
    Sampling rate : 48.0 KHz
    Bit depth : 16 bits
    Compression mode : Lossy
    Stream size : 551 MiB (4%)
    Title : AC3 51
    Language : English
    Default : No
    Forced : No
    Audio #3
    ID : 4
    Format : TrueHD
    Codec ID : A_TRUEHD
    Duration : 2h 0mn
    Bit rate mode : Variable
    Maximum bit rate : 8 412 Kbps
    Channel(s) : 8 channels
    Channel positions : Front: L C R, Side: L R, Back: L R, LFE
    Sampling rate : 48.0 KHz
    Compression mode : Lossless
    Title : TrueHD 7.1
    Language : English
    Default : No
    Forced : No
    Text #1
    ID : 5
    Format : UTF-8
    Codec ID : S_TEXT/UTF8
    Codec ID/Info : UTF-8 Plain Text
    Title : Forz
    Language : Spanish
    Default : Yes
    Forced : No
    Text #2
    ID : 6
    Format : UTF-8
    Codec ID : S_TEXT/UTF8
    Codec ID/Info : UTF-8 Plain Text
    Title : Complet
    Language : Spanish
    Default : No
    Forced : No







    Código:

    https://filejoker.net/267m4fxxkg42/mas3fd5cs.part01.rar
    https://filejoker.net/tmxxjgsfzg2a/mas3fd5cs.part02.rar
    https://filejoker.net/lhyk0e81avay/mas3fd5cs.part03.rar
    https://filejoker.net/nli1ui5p7s3c/mas3fd5cs.part04.rar
    https://filejoker.net/komme7gfrk4b/mas3fd5cs.part05.rar
    https://filejoker.net/0v545joxtm8y/mas3fd5cs.part06.rar
    https://filejoker.net/c8egqrd6u2gx/mas3fd5cs.part07.rar
    https://filejoker.net/y4ruqjor8wui/mas3fd5cs.part08.rar
    https://filejoker.net/yruzh95kxvbc/mas3fd5cs.part09.rar
    https://filejoker.net/e3qjjj2ileev/mas3fd5cs.part10.rar
    https://filejoker.net/m7ozr9zk6kd1/mas3fd5cs.part11.rar
    https://filejoker.net/hpfeu9smz7bk/mas3fd5cs.part12.rar
    https://filejoker.net/2emmu5i46cyw/mas3fd5cs.part13.rar
    https://filejoker.net/dl6gxtlw6yif/mas3fd5cs.part14.rar
    https://filejoker.net/fdbwpulizhdo/mas3fd5cs.part15.rar

      Fecha y hora actual: Mar Oct 17, 2017 4:55 pm