JAPAN SUFFERING

EL MEJOR FORO DE DESCARGAS DE MUSICA, JUEGOS Y VIDEOS.

JAPAN SUFFERING FORO DE CALIDAD Y CANTIDAD, SOMOS MAS QUE SOLO UN FORO...

    Ice Age Collision Course (2016) 3D H-SBS 1080p (Ing-Lat)

    Comparte

    pomposos
    JS Guest
    JS Guest

    Mensajes : 5632
    Reputación : 0
    Fecha de inscripción : 29/10/2013

    Ice Age Collision Course (2016) 3D H-SBS 1080p (Ing-Lat)

    Mensaje por pomposos el Mar Mayo 30, 2017 12:02 pm




    Titulo original: Ice Age: Collision Course
    Ano: 2016
    Duracion: 94 min.
    Pais: Estados Unidos
    Director: Mike Thurmeier, Galen T. Chu
    Reparto: Animation
    Productora: 20th Century Fox / Blue Sky Studios
    Genero: Animacion. Aventuras. Comedia | Prehistoria. Secuela. 3-D
    Sinopsis: La obsesiva busqueda de bellotas por parte de Scrat acaba provocando un accidente: que un asteroide se dirija a a la Tierra, amenazando con acabar con la Edad de Hielo. Sid, Manny, Diego y los demas miembros de la manada intentaran impedirlo por todos los medios.
    Código:
    http://www.imdb.com/title/tt3416828/?ref_=nv_sr_1
    Trailer
    [Tienes que estar registrado y conectado para ver este vínculo]


    General
    Format : Matroska
    Format version : Version 4 / Version 2
    File size : 11.9 GiB
    Duration : 1h 34mn
    Overall bit rate : 18.0 Mbps
    Movie name : Ice Age: Collision Course (2016) 3D H-SBS 1080p
    Encoded date : UTC 2016-10-06 15:23:12
    Writing application : mkvmerge v7.1.0 (Good Love) 64bit built on Jul 27 2014 13:06:55
    Writing library : libebml v1.3.0 + libmatroska v1.4.1
    Video
    ID : 1
    Format : AVC
    Format/Info : Advanced Video Codec
    Format profile : High@L4.1
    Format settings, CABAC : Yes
    Format settings, ReFrames : 2 frames
    Codec ID : V_MPEG4/ISO/AVC
    Duration : 1h 34mn
    Bit rate : 15.5 Mbps
    Width : 1 920 pixels
    Height : 1 080 pixels
    Display aspect ratio : 16:9
    Frame rate mode : Constant
    Frame rate : 23.976 fps
    Color space : YUV
    Chroma subsampling : 4:2:0
    Bit depth : 8 bits
    Scan type : Progressive
    Bits/(Pixel*Frame) : 0.312
    Stream size : 9.94 GiB (84%)
    Title : Ice Age: Collision Course (2016) 3D H-SBS 1080p
    Language : English
    Default : Yes
    Forced : No
    Audio #1
    ID : 2
    Format : AC-3
    Format/Info : Audio Coding 3
    Mode extension : CM (complete main)
    Format settings, Endianness : Big
    Codec ID : A_AC3
    Duration : 1h 34mn
    Bit rate mode : Constant
    Bit rate : 448 Kbps
    Channel(s) : 6 channels
    Channel positions : Front: L C R, Side: L R, LFE
    Sampling rate : 48.0 KHz
    Bit depth : 16 bits
    Compression mode : Lossy
    Stream size : 303 MiB (2%)
    Title : AC3 5.1 Bluray
    Language : Spanish
    Default : Yes
    Forced : No
    Audio #2
    ID : 3
    Format : DTS
    Format/Info : Digital Theater Systems
    Format profile : ES
    Mode : 16
    Format settings, Endianness : Big
    Codec ID : A_DTS
    Duration : 1h 34mn
    Bit rate mode : Constant
    Bit rate : 1 509 Kbps
    Channel(s) : 6 channels
    Channel positions : Front: L C R, Side: L R, LFE
    Sampling rate : 48.0 KHz
    Bit depth : 24 bits
    Compression mode : Lossy
    Stream size : 1 020 MiB (8%)
    Title : DTS
    Language : English
    Default : No
    Forced : No
    Audio #3
    ID : 4
    Format : AC-3
    Format/Info : Audio Coding 3
    Mode extension : CM (complete main)
    Format settings, Endianness : Big
    Codec ID : A_AC3
    Duration : 1h 34mn
    Bit rate mode : Constant
    Bit rate : 640 Kbps
    Channel(s) : 6 channels
    Channel positions : Front: L C R, Side: L R, LFE
    Sampling rate : 48.0 KHz
    Bit depth : 16 bits
    Compression mode : Lossy
    Stream size : 433 MiB (4%)
    Title : AC3 5.1
    Language : English
    Default : No
    Forced : No
    Text #1
    ID : 5
    Format : UTF-8
    Codec ID : S_TEXT/UTF8
    Codec ID/Info : UTF-8 Plain Text
    Title : Subt_Forz
    Language : Spanish
    Default : Yes
    Forced : No
    Text #2
    ID : 6
    Format : UTF-8
    Codec ID : S_TEXT/UTF8
    Codec ID/Info : UTF-8 Plain Text
    Title : Subt_Complet
    Language : Spanish
    Default : No
    Forced : No







    Código:

    https://filejoker.net/6bjvk4r2o94c/iagr3df5gv.part01.rar
    https://filejoker.net/5nmhn7s8wjio/iagr3df5gv.part02.rar
    https://filejoker.net/sbw5kbf25cul/iagr3df5gv.part03.rar
    https://filejoker.net/c5b0sxejlacs/iagr3df5gv.part04.rar
    https://filejoker.net/cs1mgbslw0y3/iagr3df5gv.part05.rar
    https://filejoker.net/sirh3xspsz6y/iagr3df5gv.part06.rar
    https://filejoker.net/7gxkls3xrwv8/iagr3df5gv.part07.rar
    https://filejoker.net/42lzpa74x4rj/iagr3df5gv.part08.rar
    https://filejoker.net/8dtenlgo0bw9/iagr3df5gv.part09.rar
    https://filejoker.net/vxyfdi8eyi1l/iagr3df5gv.part10.rar
    https://filejoker.net/1k6tg5gim1or/iagr3df5gv.part11.rar
    https://filejoker.net/9ire0pcp0ji1/iagr3df5gv.part12.rar
    https://filejoker.net/jj774xr8rojw/iagr3df5gv.part13.rar

      Fecha y hora actual: Vie Oct 20, 2017 5:18 am