JAPAN SUFFERING

EL MEJOR FORO DE DESCARGAS DE MUSICA, JUEGOS Y VIDEOS.

JAPAN SUFFERING FORO DE CALIDAD Y CANTIDAD, SOMOS MAS QUE SOLO UN FORO...

    In the Heart of the Sea (2015) 3D H-SBS 1080p (Ing-Lat)

    Comparte

    pomposos
    JS Guest
    JS Guest

    Mensajes : 4728
    Reputación : 0
    Fecha de inscripción : 29/10/2013

    In the Heart of the Sea (2015) 3D H-SBS 1080p (Ing-Lat)

    Mensaje por pomposos el Miér Mayo 31, 2017 12:13 pm




    Titulo original: In the Heart of the Sea
    Titulo en Latino: En el corazon del mar
    Ano: 2015
    Duracion: 121 min.
    Pais: Estados Unidos
    Director: Ron Howard
    Guion: Charles Leavitt, Rick Jaffa, Peter Morgan, Amanda Silver (Novela: Nathaniel Philbrick)
    Musica: Roque Banos
    Fotografia: Anthony Dod Mantle
    Reparto: Chris Hemsworth, Benjamin Walker, Cillian Murphy, Tom Holland, Ben Whishaw, Brendan Gleeson, Michelle Fairley, Charlotte Riley, Joseph Mawle, Jordi Molla, Andrew Crayford, Jamie Sives, Donald Sumpter, Paul Anderson, Frank Dillane
    Productora: Warner Bros. / Village Roadshow Pictures / Cott Productions / Enelmar Productions / A.I.E. / Imagine Entertainment / Roth Films / Spring Creek Productions
    Genero: Aventuras | Aventuras marinas. Siglo XIX
    Sinopsis: En el invierno de 1820, Owen Chase (Hemsworth) y otros marineros de la tripulacion del Essex sobrevivieron en alta mar en durisimas condiciones despues de que el barco chocara con una enorme ballena blanca. Owen, obsesionado con la idea de dar caza al cetaceo, se enfrento a las tormentas, al hambre y a la desesperacion. Inspirada en la historia real en la que se baso Herman Melville para escribir el famoso relato Moby Dick.
    Código:
    http://www.imdb.com/title/tt1390411/
    Trailer
    [Tienes que estar registrado y conectado para ver este vínculo]


    General
    Complete name : In the Heart of the Sea (2015) 3D H-SBS 1080p
    Format : Matroska
    Format version : Version 4 / Version 2
    File size : 17.7 GiB
    Duration : 2h 1mn
    Overall bit rate mode : Variable
    Overall bit rate : 20.8 Mbps
    Movie name : In the Heart of the Sea (2015) 3D H-SBS 1080p
    Encoded date : UTC 2016-02-25 20:20:34
    Writing application : mkvmerge v7.8.0 (River Man) 64bit built on Mar 27 2015 16:31:37
    Writing library : libebml v1.3.1 + libmatroska v1.4.2
    Video
    ID : 1
    Format : AVC
    Format/Info : Advanced Video Codec
    Format profile : High@L4.1
    Format settings, CABAC : Yes
    Format settings, ReFrames : 2 frames
    Codec ID : V_MPEG4/ISO/AVC
    Duration : 2h 1mn
    Nominal bit rate : 15.5 Mbps
    Width : 1 920 pixels
    Height : 1 080 pixels
    Display aspect ratio : 16:9
    Frame rate mode : Constant
    Frame rate : 23.976 fps
    Color space : YUV
    Chroma subsampling : 4:2:0
    Bit depth : 8 bits
    Scan type : Progressive
    Bits/(Pixel*Frame) : 0.312
    Title : In the Heart of the Sea (2015) 3D H-SBS 1080p
    Writing library : x264 core 142
    Language : English
    Default : Yes
    Forced : No
    Color primaries : BT.709
    Transfer characteristics : BT.709
    Matrix coefficients : BT.709
    Audio #1
    ID : 2
    Format : AC-3
    Format/Info : Audio Coding 3
    Mode extension : CM (complete main)
    Format settings, Endianness : Big
    Codec ID : A_AC3
    Duration : 2h 1mn
    Bit rate mode : Constant
    Bit rate : 448 Kbps
    Channel(s) : 6 channels
    Channel positions : Front: L C R, Side: L R, LFE
    Sampling rate : 48.0 KHz
    Bit depth : 16 bits
    Compression mode : Lossy
    Stream size : 390 MiB (2%)
    Title : In the Heart of the Sea (2015) AC3 5.1 - 448 Kbps (Blu-ray)
    Language : Spanish
    Default : Yes
    Forced : No
    Audio #2
    ID : 3
    Format : AC-3
    Format/Info : Audio Coding 3
    Mode extension : CM (complete main)
    Format settings, Endianness : Big
    Codec ID : A_AC3
    Duration : 2h 1mn
    Bit rate mode : Constant
    Bit rate : 640 Kbps
    Channel(s) : 6 channels
    Channel positions : Front: L C R, Side: L R, LFE
    Sampling rate : 48.0 KHz
    Bit depth : 16 bits
    Compression mode : Lossy
    Stream size : 557 MiB (3%)
    Title : In the Heart of the Sea (2015) AC3 5.1 - 640 Kbps
    Language : English
    Default : No
    Forced : No
    Audio #3
    ID : 4
    Format : TrueHD
    Codec ID : A_TRUEHD
    Duration : 2h 1mn
    Bit rate mode : Variable
    Maximum bit rate : 7 719 Kbps
    Channel(s) : 8 channels
    Channel positions : Front: L C R, Side: L R, Back: L R, LFE
    Sampling rate : 48.0 KHz
    Compression mode : Lossless
    Title : In the Heart of the Sea (2015) - TrueHD.7.1 - 7719 Kbps
    Language : English
    Default : No
    Forced : No
    Text #1
    ID : 5
    Format : UTF-8
    Codec ID : S_TEXT/UTF8
    Codec ID/Info : UTF-8 Plain Text
    Title : In the Heart of the Sea (2015) - Subt
    Language : Spanish
    Default : No
    Forced : No
    Text #2
    ID : 6
    Format : UTF-8
    Codec ID : S_TEXT/UTF8
    Codec ID/Info : UTF-8 Plain Text
    Title : In the Heart of the Sea (2015) - Subt
    Language : Spanish
    Default : Yes
    Forced : No







    Código:

    https://filejoker.net/djv9hl1cpiws/int3ds4nm.part01.rar
    https://filejoker.net/p85gcjenxnx2/int3ds4nm.part02.rar
    https://filejoker.net/k04kxbbx0zpu/int3ds4nm.part03.rar
    https://filejoker.net/hv2zxfleg8ba/int3ds4nm.part04.rar
    https://filejoker.net/pk9tawg22d7n/int3ds4nm.part05.rar
    https://filejoker.net/tgm0m891uery/int3ds4nm.part06.rar
    https://filejoker.net/e1tgmlx69390/int3ds4nm.part07.rar
    https://filejoker.net/win5t0pub3jf/int3ds4nm.part08.rar
    https://filejoker.net/yh9w9f6rj2j5/int3ds4nm.part09.rar
    https://filejoker.net/dsrqohdkmty5/int3ds4nm.part10.rar
    https://filejoker.net/xujm057s9swr/int3ds4nm.part11.rar
    https://filejoker.net/iqwupc1arjdl/int3ds4nm.part12.rar
    https://filejoker.net/8qba42gb9zbw/int3ds4nm.part13.rar
    https://filejoker.net/i5ao6v2vobwq/int3ds4nm.part14.rar
    https://filejoker.net/sfa6l9h5h8b7/int3ds4nm.part15.rar
    https://filejoker.net/6acoe8e1iuv7/int3ds4nm.part16.rar
    https://filejoker.net/ka1mh6fgyzu6/int3ds4nm.part17.rar
    https://filejoker.net/rgd4b5r09xqa/int3ds4nm.part18.rar
    https://filejoker.net/hgrl1aia2ki5/int3ds4nm.part19.rar
    https://filejoker.net/bnafgipvj0wu/int3ds4nm.part20.rar

      Fecha y hora actual: Lun Ago 21, 2017 11:40 pm