JAPAN SUFFERING

EL MEJOR FORO DE DESCARGAS DE MUSICA, JUEGOS Y VIDEOS.

JAPAN SUFFERING FORO DE CALIDAD Y CANTIDAD, SOMOS MAS QUE SOLO UN FORO...

    John Carter (2012) 3D H-SBS 1080p (Ing-Lat)

    Comparte

    pomposos
    JS Guest
    JS Guest

    Mensajes : 4728
    Reputación : 0
    Fecha de inscripción : 29/10/2013

    John Carter (2012) 3D H-SBS 1080p (Ing-Lat)

    Mensaje por pomposos el Jue Jun 01, 2017 12:08 pm




    TITULO ORIGINAL: John Carter (John Carter of Mars)
    ANO: 2012
    DURACION: 132 min.
    PAIS: Estados Unidos
    DIRECTOR: Andrew Stanton
    GUION: Michael Chabon, Andrew Stanton, Mark Andrews (Novela: Edgar Rice Burroughs)
    REPARTO: Taylor Kitsch, Lynn Collins, Willem Dafoe, Bryan Cranston, Mark Strong, Thomas Haden Church, Samantha Morton, Ciaran Hinds, Dominic West, Polly Walker, James Purefoy, Jonathan Hyde, Daryl Sabara
    PRODUCTORA: Walt Disney Pictures
    GENERO: Ciencia ficcion. Fantastico. Aventuras | Extraterrestres. Siglo XIX
    Sinopsis: Una aventura de accion espectacular, ambientada en el misterioso y exotico planeta Barsoom (Marte). JOHN CARTER esta basada en una clasica novela de Edgar Rice Burroughs. El film narra la historia de un veterano de guerra, ex militar capitan John Carter (Taylor Kitsch), quien inexplicablemente es transportado hasta Marte donde, pese a su reticencia, se vera inmerso en un conflicto de proporciones epicas con los habitantes del planeta, entre los que se encuentran Tars Tarkas (Willem Dafoe) y la cautivante Princesa Dejah Thoris (Lynn Collins). En un mundo al borde del colapso, Carter redescubrira su humanidad al advertir que la supervivencia de Barsoom y su gente esta en sus manos.
    Código:
    http://www.imdb.com/title/tt0401729/
    Trailer
    [Tienes que estar registrado y conectado para ver este vínculo]


    General
    Format : Matroska
    Format version : Version 2
    File size : 10.9 GiB
    Duration : 2h 12mn
    Overall bit rate mode : Variable
    Overall bit rate : 11.8 Mbps
    Encoded date : UTC 2012-10-24 02:07:41
    Writing application : mkvmerge v5.7.0 (The Whirlwind) built on Jul 8 2012 20:08:51
    Writing library : libebml v1.2.3 + libmatroska v1.3.0
    Video
    ID : 1
    Format : AVC
    Format/Info : Advanced Video Codec
    Format profile : High@L4.0
    Format settings, CABAC : Yes
    Format settings, ReFrames : 2 frames
    Format settings, GOP : M=3, N=15
    Codec ID : V_MPEG4/ISO/AVC
    Duration : 2h 12mn
    Bit rate mode : Variable
    Bit rate : 8 820 Kbps
    Maximum bit rate : 13.6 Mbps
    Width : 1 920 pixels
    Height : 800 pixels
    Display aspect ratio : 2.40:1
    Frame rate : 23.976 fps
    Color space : YUV
    Chroma subsampling : 4:2:0
    Bit depth : 8 bits
    Scan type : Progressive
    Bits/(Pixel*Frame) : 0.239
    Stream size : 8.13 GiB (74%)
    Language : English
    Default : Yes
    Forced : No
    Audio #1
    ID : 2
    Format : AC-3
    Format/Info : Audio Coding 3
    Mode extension : CM (complete main)
    Codec ID : A_AC3
    Duration : 2h 12mn
    Bit rate mode : Constant
    Bit rate : 640 Kbps
    Channel(s) : 6 channels
    Channel positions : Front: L C R, Side: L R, LFE
    Sampling rate : 48.0 KHz
    Bit depth : 16 bits
    Compression mode : Lossy
    Stream size : 604 MiB (5%)
    Title : AC3 5.1
    Language : Spanish
    Default : Yes
    Forced : No
    Audio #2
    ID : 3
    Format : AC-3
    Format/Info : Audio Coding 3
    Mode extension : CM (complete main)
    Codec ID : A_AC3
    Duration : 2h 12mn
    Bit rate mode : Constant
    Bit rate : 640 Kbps
    Channel(s) : 6 channels
    Channel positions : Front: L C R, Side: L R, LFE
    Sampling rate : 48.0 KHz
    Bit depth : 16 bits
    Compression mode : Lossy
    Stream size : 604 MiB (5%)
    Title : AC3 5.1
    Language : English
    Default : No
    Forced : No
    Audio #3
    ID : 4
    Format : DTS
    Format/Info : Digital Theater Systems
    Codec ID : A_DTS
    Duration : 2h 12mn
    Bit rate mode : Constant
    Bit rate : 1 510 Kbps
    Channel(s) : 6 channels
    Channel positions : Front: L C R, Side: L R, LFE
    Sampling rate : 48.0 KHz
    Bit depth : 24 bits
    Compression mode : Lossy
    Delay relative to video : 11ms
    Stream size : 1.39 GiB (13%)
    Title : DTS 5.1
    Language : English
    Default : No
    Forced : No
    Text #1
    ID : 5
    Format : UTF-8
    Codec ID : S_TEXT/UTF8
    Codec ID/Info : UTF-8 Plain Text
    Title : Forz
    Language : Spanish
    Default : Yes
    Forced : No
    Text #2
    ID : 6
    Format : UTF-8
    Codec ID : S_TEXT/UTF8
    Codec ID/Info : UTF-8 Plain Text
    Language : Spanish
    Default : No
    Forced : No
    Text #3
    ID : 7
    Format : UTF-8
    Codec ID : S_TEXT/UTF8
    Codec ID/Info : UTF-8 Plain Text
    Language : English
    Default : No
    Forced : No







    Código:

    https://filejoker.net/50kiist1oij5/jca3dfd5c.part01.rar
    https://filejoker.net/8mba8pw0up2d/jca3dfd5c.part02.rar
    https://filejoker.net/j3ywybvj6bzh/jca3dfd5c.part03.rar
    https://filejoker.net/t70c4qgoij6a/jca3dfd5c.part04.rar
    https://filejoker.net/c1y0988ef75d/jca3dfd5c.part05.rar
    https://filejoker.net/8jrxau2hs7un/jca3dfd5c.part06.rar
    https://filejoker.net/npu3uqceqpub/jca3dfd5c.part07.rar
    https://filejoker.net/2rd2wu1rbupt/jca3dfd5c.part08.rar
    https://filejoker.net/3cc0826i73k7/jca3dfd5c.part09.rar
    https://filejoker.net/pqrt6pxjc8pz/jca3dfd5c.part10.rar
    https://filejoker.net/8wje7ac9wzau/jca3dfd5c.part11.rar
    https://filejoker.net/i2szf87rskh6/jca3dfd5c.part12.rar

      Fecha y hora actual: Lun Ago 21, 2017 11:42 pm