JAPAN SUFFERING

EL MEJOR FORO DE DESCARGAS DE MUSICA, JUEGOS Y VIDEOS.

JAPAN SUFFERING FORO DE CALIDAD Y CANTIDAD, SOMOS MAS QUE SOLO UN FORO...

    The Boss Baby [2017] 3D H-SBS 1080p [Ing-Lat]

    Comparte

    pomposos
    JS Guest
    JS Guest

    Mensajes : 5972
    Reputación : 0
    Fecha de inscripción : 29/10/2013

    The Boss Baby [2017] 3D H-SBS 1080p [Ing-Lat]

    Mensaje por pomposos el Lun Jul 24, 2017 10:54 pm




    Titulo original: The Boss Baby
    Ano: 2017
    Duracion: 97 min.
    Pais: Estados Unidos
    Director: Tom McGrath
    Reparto: Animation
    Productora: DreamWorks Animation / 20th Century Fox
    Genero: Animacion. Comedia. Infantil | 3-D
    Sinopsis: La llegada de un hermanito trastoca por completo la idilica vida del pequeno Tim, hasta entonces hijo unico de 7 anos y el ojito derecho de sus padres. Su nuevo hermano es un peculiar bebe, que viste traje y corbata y lleva maletin. Tim comienza a sospechar de el, hasta que descubre que puede hablar.
    Código:
    http://www.imdb.com/title/tt3874544/?ref_=nv_sr_1
    [Tienes que estar registrado y conectado para ver este vínculo]

    [center]

    General
    Format : Matroska
    Format version : Version 4 / Version 2
    File size : 5.77 GiB
    Duration : 1 h 37 min
    Overall bit rate : 8 472 kb/s
    Movie name : The Boss Baby (2017) 3D H-SBS 1080p
    Encoded date : UTC 2017-07-12 17:51:25
    Writing application : mkvmerge v9.9.0 (Pick Up) 64bit
    Writing library : libebml v1.3.4 + libmatroska v1.4.5
    Video
    ID : 1
    Format : AVC
    Format/Info : Advanced Video Codec
    Format profile : High@L4.1
    Format settings, CABAC : Yes
    Format settings, ReFrames : 5 frames
    Codec ID : V_MPEG4/ISO/AVC
    Duration : 1 h 37 min
    Bit rate : 6 516 kb/s
    Width : 1 920 pixels
    Height : 816 pixels
    Display aspect ratio : 2.35:1
    Frame rate mode : Constant
    Frame rate : 23.976 FPS
    Color space : YUV
    Chroma subsampling : 4:2:0
    Bit depth : 8 bits
    Scan type : Progressive
    Bits/(Pixel*Frame) : 0.173
    Stream size : 4.44 GiB (77%)
    Title : The Boss Baby (2017) 3D H-SBS 1080p
    Language : English
    Default : Yes
    Forced : No
    Audio #1
    ID : 2
    Format : AC-3
    Format/Info : Audio Coding 3
    Mode extension : CM (complete main)
    Format settings, Endianness : Big
    Codec ID : A_AC3
    Duration : 1 h 37 min
    Bit rate mode : Constant
    Bit rate : 448 kb/s
    Channel(s) : 6 channels
    Channel positions : Front: L C R, Side: L R, LFE
    Sampling rate : 48.0 kHz
    Frame rate : 31.250 FPS (1536 spf)
    Bit depth : 16 bits
    Compression mode : Lossy
    Stream size : 312 MiB (5%)
    Title : AC3 5.1 Bluray
    Language : Spanish
    Default : Yes
    Forced : No
    Audio #2
    ID : 3
    Format : DTS
    Format/Info : Digital Theater Systems
    Format profile : ES Matrix / Core
    Mode : 16
    Format settings, Endianness : Big
    Codec ID : A_DTS
    Duration : 1 h 37 min
    Bit rate mode : Constant
    Bit rate : 1 509 kb/s
    Channel(s) : 7 channels / 6 channels
    Channel positions : Front: L C R, Side: L R, Back: C, LFE / Front: L C R, Side: L R, LFE
    Sampling rate : 48.0 kHz
    Frame rate : 93.750 FPS (512 spf)
    Bit depth : 24 bits
    Compression mode : Lossy
    Stream size : 1.03 GiB (18%)
    Title : DTS
    Language : English
    Default : No
    Forced : No
    Text #1
    ID : 4
    Format : UTF-8
    Codec ID : S_TEXT/UTF8
    Codec ID/Info : UTF-8 Plain Text
    Duration : 1 h 19 min
    Bit rate : 0 b/s
    Count of elements : 11
    Stream size : 157 Bytes (0%)
    Title : Subt_Forz
    Language : Spanish
    Default : Yes
    Forced : No
    Text #2
    ID : 5
    Format : UTF-8
    Codec ID : S_TEXT/UTF8
    Codec ID/Info : UTF-8 Plain Text
    Duration : 1 h 36 min
    Bit rate : 59 b/s
    Count of elements : 1570
    Stream size : 41.7 KiB (0%)
    Title : Subti Complet
    Language : Spanish
    Default : No
    Forced : No








    Peliculas
    Uploadgig, Rapidgator, Turbobit

    **Todos los Enlaces Estan en Lupaste:

    [Tienes que estar registrado y conectado para ver este vínculo]

      Fecha y hora actual: Miér Dic 13, 2017 9:15 am