JAPAN SUFFERING

EL MEJOR FORO DE DESCARGAS DE MUSICA, JUEGOS Y VIDEOS.

JAPAN SUFFERING FORO DE CALIDAD Y CANTIDAD, SOMOS MAS QUE SOLO UN FORO...

    Cloudy with a Chance of Meatballs [2009] 3D H-SBS 1080p [Ing-Lat]

    Comparte

    pomposos
    JS Guest
    JS Guest

    Mensajes : 4729
    Reputación : 0
    Fecha de inscripción : 29/10/2013

    Cloudy with a Chance of Meatballs [2009] 3D H-SBS 1080p [Ing-Lat]

    Mensaje por pomposos el Sáb Ago 05, 2017 8:24 am




    TITULO ORIGINAL: Cloudy with a Chance of Meatballs
    ANO: 2009
    DURACION: 86 min.
    PAIS: USA
    DIRECTOR: Philip Lord, Chris Miller
    GUION: Philip Lord, Chris Miller (Libro: Judi Barrett)
    REPARTO: Animation
    PRODUCTORA: Sony Pictures Animation
    GENERO: Animacion. Comedia. Ciencia ficcion. Fantastico. Infantil | Catastrofes. 3-D
    Adaptacion del libro homonimo de Judi Barrett, una parodia animada de los films de catastrofes, como Armageddon, Twister o Independence Day. El protagonista es Flint, un joven cientifico que suena con inventar algo que le mejore la vida a todos sus vecinos. Tras muchos intentos consigue crear algo que realmente funciona: una maquina que hace caer comida del cielo.
    Código:
    http://www.imdb.com/title/tt0844471/
    [Tienes que estar registrado y conectado para ver este vínculo]

    [center]

    General
    Format : Matroska
    Format version : Version 2
    File size : 7.86 GiB
    Duration : 1h 29mn
    Overall bit rate : 12.5 Mbps
    Encoded date : UTC 2014-02-19 22:01:49
    Writing application : mkvmerge v5.7.0 ('The Whirlwind') built on Jul 8 2012 20:08:51
    Writing library : libebml v1.2.3 + libmatroska v1.3.0
    Video
    ID : 1
    Format : AVC
    Format/Info : Advanced Video Codec
    Format profile : High@L4.1
    Format settings, CABAC : Yes
    Format settings, ReFrames : 4 frames
    Muxing mode : Header stripping
    Codec ID : V_MPEG4/ISO/AVC
    Duration : 1h 29mn
    Bit rate : 10 000 Kbps
    Width : 1 920 pixels
    Height : 1 080 pixels
    Display aspect ratio : 16:9
    Frame rate mode : Constant
    Frame rate : 23.976 fps
    Color space : YUV
    Chroma subsampling : 4:2:0
    Bit depth : 8 bits
    Scan type : Progressive
    Bits/(Pixel*Frame) : 0.201
    Stream size : 6.07 GiB (77%)
    Writing library : x264 core 104 r1677 19df41a
    Language : English
    Default : Yes
    Forced : No
    Audio #1
    ID : 2
    Format : AC-3
    Format/Info : Audio Coding 3
    Mode extension : CM (complete main)
    Format settings, Endianness : Big
    Muxing mode : Header stripping
    Codec ID : A_AC3
    Duration : 1h 29mn
    Bit rate mode : Constant
    Bit rate : 448 Kbps
    Channel(s) : 6 channels
    Channel positions : Front: L C R, Side: L R, LFE
    Sampling rate : 48.0 KHz
    Bit depth : 16 bits
    Compression mode : Lossy
    Stream size : 288 MiB (4%)
    Title : AC3 5.1
    Language : Spanish
    Default : Yes
    Forced : No
    Audio #2
    ID : 3
    Format : AC-3
    Format/Info : Audio Coding 3
    Mode extension : CM (complete main)
    Format settings, Endianness : Big
    Muxing mode : Header stripping
    Codec ID : A_AC3
    Duration : 1h 29mn
    Bit rate mode : Constant
    Bit rate : 640 Kbps
    Channel(s) : 6 channels
    Channel positions : Front: L C R, Side: L R, LFE
    Sampling rate : 48.0 KHz
    Bit depth : 16 bits
    Compression mode : Lossy
    Stream size : 411 MiB (5%)
    Title : AC3 5.1
    Language : English
    Default : No
    Forced : No
    Audio #3
    ID : 4
    Format : DTS
    Format/Info : Digital Theater Systems
    Mode : 16
    Format settings, Endianness : Big
    Muxing mode : Header stripping
    Codec ID : A_DTS
    Duration : 1h 29mn
    Bit rate mode : Constant
    Bit rate : 1 509 Kbps
    Channel(s) : 6 channels
    Channel positions : Front: L C R, Side: L R, LFE
    Sampling rate : 48.0 KHz
    Bit depth : 24 bits
    Compression mode : Lossy
    Stream size : 970 MiB (12%)
    Title : DTS 5.1
    Language : English
    Default : No
    Forced : No
    Text
    ID : 5
    Format : VobSub
    Muxing mode : zlib
    Codec ID : S_VOBSUB
    Codec ID/Info : The same subtitle format used on DVDs
    Language : Spanish
    Default : No
    Forced : No







    Uploadgig, File Upload, Usercloud

    **Todos los Enlaces Estan en Lupaste:

    [Tienes que estar registrado y conectado para ver este vínculo]

      Fecha y hora actual: Lun Ago 21, 2017 8:45 pm