JAPAN SUFFERING

EL MEJOR FORO DE DESCARGAS DE MUSICA, JUEGOS Y VIDEOS.

JAPAN SUFFERING FORO DE CALIDAD Y CANTIDAD, SOMOS MAS QUE SOLO UN FORO...

    American Beauty (1999)(FullHD 1080p)(Ing-Lat)

    Comparte

    pomposos
    JS Guest
    JS Guest

    Mensajes : 4729
    Reputación : 0
    Fecha de inscripción : 29/10/2013

    American Beauty (1999)(FullHD 1080p)(Ing-Lat)

    Mensaje por pomposos el Lun Mar 06, 2017 7:39 am




    TITULO ORIGINAL: American Beauty
    ANO: 1999
    DURACION: 122 min.
    Pais: Estados Unidos
    DIRECTOR: Sam Mendes
    GUION: Alan Ball
    MUSICA: Thomas Newman
    FOTOGRAFIA: Conrad L. Hall
    REPARTO: Kevin Spacey, Annette Bening, Thora Birch, Allison Janney, Peter Gallagher, Mena Suvari, Wes Bentley, Chris Cooper, Scott Bakula, Sam Robards, Barry Del Sherman
    PRODUCTORA: Dreamworks Pictures
    GENERO: Drama. Comedia | Comedia dramatica. Familia. Satira. Pelicula de culto
    SINOPSIS Lester Burnham (Kevin Spacey), un cuarenton en crisis, cansado de su trabajo y de su mujer Carolyn (Annette Bening), despierta de su letargo cuando conoce a la atractiva amiga (Mena Suvari) de su hija (Thora Birch), a la que intentara' impresionar a toda costa.


    [center]
    Código:

    General
    Format : Matroska
    Format version : Version 4 / Version 2
    File size : 10.5 GiB
    Duration : 2 h 1 min
    Overall bit rate : 12.4 Mb/s
    Movie name : www.club-hd.com
    Encoded date : UTC 2016-11-30 00:44:15
    Writing application : mkvmerge v9.5.0 ('Quiet Fire') 64bit
    Writing library : libebml v1.3.4 + libmatroska v1.4.5
    Video
    ID : 1
    Format : AVC
    Format/Info : Advanced Video Codec
    Format profile : High@L4.1
    Format settings, CABAC : Yes
    Format settings, ReFrames : 7 frames
    Codec ID : V_MPEG4/ISO/AVC
    Duration : 2 h 1 min
    Bit rate : 10 000 kb/s
    Width : 1 920 pixels
    Height : 816 pixels
    Display aspect ratio : 2.35:1
    Frame rate mode : Constant
    Frame rate : 23.976 (24000/1001) FPS
    Color space : YUV
    Chroma subsampling : 4:2:0
    Bit depth : 8 bits
    Scan type : Progressive
    Bits/(Pixel*Frame) : 0.266
    Stream size : 8.49 GiB (81%)
    Writing library : x264 core 148 r2694 3b70645
    Language : English
    Default : Yes
    Forced : No
    Audio #1
    ID : 2
    Format : AC-3
    Format/Info : Audio Coding 3
    Mode extension : CM (complete main)
    Format settings, Endianness : Big
    Codec ID : A_AC3
    Duration : 2 h 1 min
    Bit rate mode : Constant
    Bit rate : 448 kb/s
    Channel(s) : 6 channels
    Channel positions : Front: L C R, Side: L R, LFE
    Sampling rate : 48.0 kHz
    Frame rate : 31.250 FPS (1536 spf)
    Bit depth : 16 bits
    Compression mode : Lossy
    Stream size : 390 MiB (4%)
    Language : Spanish
    Default : Yes
    Forced : No
    Audio #2
    ID : 3
    Format : AC-3
    Format/Info : Audio Coding 3
    Mode extension : CM (complete main)
    Format settings, Endianness : Big
    Codec ID : A_AC3
    Duration : 2 h 1 min
    Bit rate mode : Constant
    Bit rate : 448 kb/s
    Channel(s) : 6 channels
    Channel positions : Front: L C R, Side: L R, LFE
    Sampling rate : 48.0 kHz
    Frame rate : 31.250 FPS (1536 spf)
    Bit depth : 16 bits
    Compression mode : Lossy
    Stream size : 390 MiB (4%)
    Language : English
    Default : No
    Forced : No
    Audio #3
    ID : 4
    Format : DTS
    Format/Info : Digital Theater Systems
    Mode : 16
    Format settings, Endianness : Big
    Codec ID : A_DTS
    Duration : 2 h 1 min
    Bit rate mode : Constant
    Bit rate : 1 509 kb/s
    Channel(s) : 6 channels
    Channel positions : Front: L C R, Side: L R, LFE
    Sampling rate : 48.0 kHz
    Frame rate : 93.750 FPS (512 spf)
    Bit depth : 24 bits
    Compression mode : Lossy
    Stream size : 1.28 GiB (12%)
    Title : DTS
    Language : English
    Default : No
    Forced : No
    Text
    ID : 5
    Format : UTF-8
    Codec ID : S_TEXT/UTF8
    Codec ID/Info : UTF-8 Plain Text
    Duration : 1 h 55 min
    Bit rate : 47 b/s
    Count of elements : 1183
    Stream size : 40.0 KiB (0%)
    Language : Spanish
    Default : No
    Forced : No









    Código:

    https://www.bigfile.to/file/xZA6m6epgCju/amebeaghd.part01.rar
    https://www.bigfile.to/file/TsyQTqsS2asp/amebeaghd.part02.rar
    https://www.bigfile.to/file/zgmjEG4Txhtd/amebeaghd.part03.rar
    https://www.bigfile.to/file/7HVMTDRchSWN/amebeaghd.part04.rar
    https://www.bigfile.to/file/q3urcKe7fvDY/amebeaghd.part05.rar
    https://www.bigfile.to/file/CaPq9UJ4Wm8u/amebeaghd.part06.rar
    https://www.bigfile.to/file/neeR4QfZA7jy/amebeaghd.part07.rar
    https://www.bigfile.to/file/nHCS3ewFQ6Vw/amebeaghd.part08.rar
    https://www.bigfile.to/file/3chvPpYeK2UY/amebeaghd.part09.rar
    https://www.bigfile.to/file/5s5f2VsfTeE9/amebeaghd.part10.rar
    https://www.bigfile.to/file/R9k7eracqZWM/amebeaghd.part11.rar
    https://www.bigfile.to/file/XsEyDd8MKKhr/amebeaghd.part12.rar
    https://www.bigfile.to/file/Fkyyg45TNMfV/amebeaghd.part13.rar
    https://www.bigfile.to/file/TRz44f27ntM6/amebeaghd.part14.rar
    https://www.bigfile.to/file/terJN355mh8s/amebeaghd.part15.rar
    https://www.bigfile.to/file/HCQ5dtFaqChp/amebeaghd.part16.rar
    https://www.bigfile.to/file/t9kSteE8cXnp/amebeaghd.part17.rar
    https://www.bigfile.to/file/ybQ5CxNvMyAK/amebeaghd.part18.rar
    https://www.bigfile.to/file/rGjA9ay9wQTZ/amebeaghd.part19.rar
    https://www.bigfile.to/file/GFDqRYTQecRV/amebeaghd.part20.rar
    https://www.bigfile.to/file/bz6648ypACwx/amebeaghd.part21.rar
    https://www.bigfile.to/file/tXwNVeKsvQV9/amebeaghd.part22.rar
    https://www.bigfile.to/file/Hat6GDQAXxxq/amebeaghd.part23.rar
    https://www.bigfile.to/file/Aphh535HXuFJ/amebeaghd.part24.rar
    https://www.bigfile.to/file/QP2g3HpHD84v/amebeaghd.part25.rar
    https://www.bigfile.to/file/eTcNHMnPNfGr/amebeaghd.part26.rar
    https://www.bigfile.to/file/AUCM6RWvn5fB/amebeaghd.part27.rar
    https://www.bigfile.to/file/5mQUypzdUch3/amebeaghd.part28.rar
    https://www.bigfile.to/file/YXFbFpH3deAb/amebeaghd.part29.rar
    https://www.bigfile.to/file/BUwpvCh4sKTA/amebeaghd.part30.rar
    https://www.bigfile.to/file/u9CYVWKBzaZS/amebeaghd.part31.rar
    https://www.bigfile.to/file/3GsPJPTBakGn/amebeaghd.part32.rar
    https://www.bigfile.to/file/2DPzBQSN6rHR/amebeaghd.part33.rar
    https://www.bigfile.to/file/PEtnqSQMDdKH/amebeaghd.part34.rar
    https://www.bigfile.to/file/mAkXFWWzpzAp/amebeaghd.part35.rar
    https://www.bigfile.to/file/G8CYRU3HCy5n/amebeaghd.part36.rar
    https://www.bigfile.to/file/nrKJyHNBHQEC/amebeaghd.part37.rar
    https://www.bigfile.to/file/AndpTDUWV3Gn/amebeaghd.part38.rar
    https://www.bigfile.to/file/9Akts4XWG7us/amebeaghd.part39.rar
    https://www.bigfile.to/file/CQAtaBxMS56c/amebeaghd.part40.rar
    https://www.bigfile.to/file/rcRMxQu2J6yc/amebeaghd.part41.rar
    https://www.bigfile.to/file/6XAXuEy2jcGn/amebeaghd.part42.rar
    https://www.bigfile.to/file/rWzdSnJAUUwy/amebeaghd.part43.rar

      Fecha y hora actual: Lun Ago 21, 2017 11:48 pm