JAPAN SUFFERING

EL MEJOR FORO DE DESCARGAS DE MUSICA, JUEGOS Y VIDEOS.

JAPAN SUFFERING FORO DE CALIDAD Y CANTIDAD, SOMOS MAS QUE SOLO UN FORO...

    Wes Cravens New Nightmare (1994)(FullHD 1080)(Ing-Lat)

    Comparte

    pomposos
    JS Guest
    JS Guest

    Mensajes : 5619
    Reputación : 0
    Fecha de inscripción : 29/10/2013

    Wes Cravens New Nightmare (1994)(FullHD 1080)(Ing-Lat)

    Mensaje por pomposos el Lun Mar 06, 2017 2:43 pm



    Código:
    http://www.imdb.com/title/tt0111686/

    Titulo original
    Wes Craven's New Nightmare (AKA A Nightmare on Elm Street 7)
    Ano 1994
    Duracion 109 min.
    Pais Estados Unidos
    Director Wes Craven
    Guion Wes Craven
    Musica J. Peter Robinson
    Fotografia Mark Irwin
    Reparto Heather Langenkamp, Robert Englund, Miko Hughes, John Saxon, Matt Winston, Rob LaBelle, David Newsome, Wes Craven
    Productora New Line Cinema
    Genero Terror. Fantastico | Cine dentro del cine. Surrealismo. Secuela
    Sinopsis Wes Craven y Heather Langenkap protagonizan una nueva entrega de "Pesadilla en Elm Street". Heather empezara a sonar con Freddy, como ocurria en las anteriores peliculas, pero se da cuenta de que un demonio ha adoptado la imagen del asesino para aterrorizar a los miembros del equipo.

    Código:

    Format : Matroska
    Format version : Version 4 / Version 2
    File size : 2.79 GiB
    Duration : 1h 52mn
    Overall bit rate : 3 564 Kbps
    Movie name : Wes Craven's New Nightmare (1994) FULL 1080p
    Encoded date : UTC 2014-04-29 00:17:23
    Writing application : mkvmerge v6.5.0 ('Isn't she lovely') built on Oct 20 2013 12:50:05
    Writing library : libebml v1.3.0 + libmatroska v1.4.1
    Video
    ID : 1
    Format : AVC
    Format/Info : Advanced Video Codec
    Format profile : High@L4.1
    Format settings, CABAC : Yes
    Format settings, ReFrames : 2 frames
    Codec ID : V_MPEG4/ISO/AVC
    Duration : 1h 52mn
    Bit rate : 2 853 Kbps
    Width : 1 920 pixels
    Height : 1 080 pixels
    Display aspect ratio : 16:9
    Frame rate mode : Constant
    Frame rate : 23.976 fps
    Color space : YUV
    Chroma subsampling : 4:2:0
    Bit depth : 8 bits
    Scan type : Progressive
    Bits/(Pixel*Frame) : 0.057
    Stream size : 2.24 GiB (80%)
    Title : [Tienes que estar registrado y conectado para ver este vínculo]
    Writing library : x264 core
    Default : Yes
    Forced : No
    Color primaries : BT.709
    Transfer characteristics : BT.709
    Matrix coefficients : BT.709
    Audio #1
    ID : 2
    Format : AC-3
    Format/Info : Audio Coding 3
    Mode extension : CM (complete main)
    Format settings, Endianness : Big
    Codec ID : A_AC3
    Duration : 1h 52mn
    Bit rate mode : Constant
    Bit rate : 192 Kbps
    Channel count : 2 channels
    Channel positions : Front: L R
    Sampling rate : 48.0 KHz
    Bit depth : 16 bits
    Compression mode : Lossy
    Delay relative to video : 14ms
    Stream size : 154 MiB (5%)
    Title : Audio Latino
    Language : Spanish
    Default : Yes
    Forced : No
    Audio #2
    ID : 3
    Format : AC-3
    Format/Info : Audio Coding 3
    Mode extension : CM (complete main)
    Format settings, Endianness : Big
    Codec ID : A_AC3
    Duration : 1h 52mn
    Bit rate mode : Constant
    Bit rate : 448 Kbps
    Channel count : 6 channels
    Channel positions : Front: L C R, Side: L R, LFE
    Sampling rate : 48.0 KHz
    Bit depth : 16 bits
    Compression mode : Lossy
    Stream size : 360 MiB (13%)
    Title : Audio Ingles
    Language : English
    Default : No
    Forced : No
    Text #1
    ID : 4
    Format : UTF-8
    Codec ID : S_TEXT/UTF8
    Codec ID/Info : UTF-8 Plain Text
    Default : Yes
    Forced : No
    Text #2
    ID : 5
    Format : VobSub
    Muxing mode : zlib
    Codec ID : S_VOBSUB
    Codec ID/Info : The same subtitle format used on DVDs
    Title : Subtitulos Latino
    Language : Spanish
    Default : No
    Forced : No
    Text #3
    ID : 6
    Format : VobSub
    Muxing mode : zlib
    Codec ID : S_VOBSUB
    Codec ID/Info : The same subtitle format used on DVDs
    Title : Subtitulos Ingles
    Language : English
    Default : No
    Forced : No









    Código:

    https://www.bigfile.to/file/kXMwVXCFCFQc/anigmfrd7.part01.rar
    https://www.bigfile.to/file/chUUXQDSRm8y/anigmfrd7.part02.rar
    https://www.bigfile.to/file/2Fs6Z49fDSa6/anigmfrd7.part03.rar
    https://www.bigfile.to/file/mwpB9TSrW3f3/anigmfrd7.part04.rar
    https://www.bigfile.to/file/XGygwU4YqJuN/anigmfrd7.part05.rar
    https://www.bigfile.to/file/SdhewxUB6s9N/anigmfrd7.part06.rar
    https://www.bigfile.to/file/YqgkAm9F79Ar/anigmfrd7.part07.rar
    https://www.bigfile.to/file/dRCSFtNdUzAv/anigmfrd7.part08.rar
    https://www.bigfile.to/file/DHEB6a3FjkQX/anigmfrd7.part09.rar
    https://www.bigfile.to/file/TEJdqus9eDC7/anigmfrd7.part10.rar
    https://www.bigfile.to/file/6aUpb5Qq8ngC/anigmfrd7.part11.rar
    https://www.bigfile.to/file/27h4xDsckWt8/anigmfrd7.part12.rar

      Fecha y hora actual: Mar Oct 17, 2017 4:57 pm