JAPAN SUFFERING

EL MEJOR FORO DE DESCARGAS DE MUSICA, JUEGOS Y VIDEOS.

JAPAN SUFFERING FORO DE CALIDAD Y CANTIDAD, SOMOS MAS QUE SOLO UN FORO...

    ParaNorman (2012)(3D H-SBS 1080p)(Ing-Lat)

    Comparte

    pomposos
    JS Guest
    JS Guest

    Mensajes : 5619
    Reputación : 0
    Fecha de inscripción : 29/10/2013

    ParaNorman (2012)(3D H-SBS 1080p)(Ing-Lat)

    Mensaje por pomposos el Lun Mar 06, 2017 11:11 am




    TITULO ORIGINAL: ParaNorman
    ANO: 2012
    DURACION: 92 min.
    PAIS: USA
    DIRECTOR: Chris Butler, Sam Fell
    GUION: Chris Butler
    REPARTO: Animation
    PRODUCTORA: Focus Features / LAIKA
    GENERO: Animacion. Fantastico. Comedia | Comedia de terror. Zombis. Stop Motion. 3-D
    SINOPSIS: Los aterrorizados habitantes de un pueblo asediado por zombis solo pueden pedir ayuda al incomprendido Norman, un joven que sabe hablar con los muertos. Pero este, para salvar a su pueblo de una antigua maldicion, no solo tendra' que enfrentarse con zombis, sino tambien con brujas y, sobre todo, con un grupo de adultos subnormales.

    Código:

    General
    Format                                  : Matroska
    Format version                          : Version 2
    File size                                : 9.18 GiB
    Duration                                : 1h 32mn
    Overall bit rate                        : 14.2 Mbps
    Encoded date                            : UTC 2012-12-18 21:35:20
    Writing application                      : mkvmerge v5.7.0 ('The Whirlwind') built on Jul  8 2012 20:08:51
    Writing library                          : libebml v1.2.3 + libmatroska v1.3.0
    Video
    ID                                      : 1
    Format                                  : AVC
    Format/Info                              : Advanced Video Codec
    Format profile                          : High@L4.1
    Format settings, CABAC                  : Yes
    Format settings, ReFrames                : 2 frames
    Codec ID                                : V_MPEG4/ISO/AVC
    Duration                                : 1h 32mn
    Bit rate                                : 11.2 Mbps
    Width                                    : 1 920 pixels
    Height                                  : 1 080 pixels
    Display aspect ratio                    : 16:9
    Frame rate mode                          : Constant
    Frame rate                              : 23.976 fps
    Color space                              : YUV
    Chroma subsampling                      : 4:2:0
    Bit depth                                : 8 bits
    Scan type                                : Progressive
    Bits/(Pixel*Frame)                      : 0.225
    Stream size                              : 7.20 GiB (78%)
    Writing library                          : x264 core
    Language                                : English
    Default                                  : Yes
    Forced                                  : No
    Color primaries                          : BT.709
    Transfer characteristics                : BT.709
    Matrix coefficients                      : BT.709
    Audio #1
    ID                                      : 2
    Format                                  : AC-3
    Format/Info                              : Audio Coding 3
    Mode extension                          : CM (complete main)
    Format settings, Endianness              : Big
    Codec ID                                : A_AC3
    Duration                                : 1h 32mn
    Bit rate mode                            : Constant
    Bit rate                                : 640 Kbps
    Channel(s)                              : 6 channels
    Channel positions                        : Front: L C R, Side: L R, LFE
    Sampling rate                            : 48.0 KHz
    Bit depth                                : 16 bits
    Compression mode                        : Lossy
    Stream size                              : 422 MiB (4%)
    Title                                    : AC3 5.1
    Language                                : Spanish
    Default                                  : Yes
    Forced                                  : No
    Audio #2
    ID                                      : 3
    Format                                  : AC-3
    Format/Info                              : Audio Coding 3
    Mode extension                          : CM (complete main)
    Format settings, Endianness              : Big
    Codec ID                                : A_AC3
    Duration                                : 1h 32mn
    Bit rate mode                            : Constant
    Bit rate                                : 640 Kbps
    Channel(s)                              : 6 channels
    Channel positions                        : Front: L C R, Side: L R, LFE
    Sampling rate                            : 48.0 KHz
    Bit depth                                : 16 bits
    Compression mode                        : Lossy
    Stream size                              : 422 MiB (4%)
    Title                                    : AC3 5.1
    Language                                : English
    Default                                  : No
    Forced                                  : No
    Audio #3
    ID                                      : 4
    Format                                  : DTS
    Format/Info                              : Digital Theater Systems
    Mode                                    : 16
    Format settings, Endianness              : Big
    Codec ID                                : A_DTS
    Duration                                : 1h 32mn
    Bit rate mode                            : Constant
    Bit rate                                : 1 509 Kbps
    Channel(s)                              : 6 channels
    Channel positions                        : Front: L C R, Side: L R, LFE
    Sampling rate                            : 48.0 KHz
    Bit depth                                : 24 bits
    Compression mode                        : Lossy
    Delay relative to video                  : 11ms
    Stream size                              : 996 MiB (11%)
    Title                                    : DTS 5.1
    Language                                : English
    Default                                  : No
    Forced                                  : No
    Text #1
    ID                                      : 5
    Format                                  : UTF-8
    Codec ID                                : S_TEXT/UTF8
    Codec ID/Info                            : UTF-8 Plain Text
    Title                                    : Forzados
    Language                                : Spanish
    Default                                  : Yes
    Forced                                  : No
    Text #2
    ID                                      : 6
    Format                                  : UTF-8
    Codec ID                                : S_TEXT/UTF8
    Codec ID/Info                            : UTF-8 Plain Text
    Language                                : Spanish
    Default                                  : No
    Forced                                  : No
    Text #3
    ID                                      : 7
    Format                                  : UTF-8
    Codec ID                                : S_TEXT/UTF8
    Codec ID/Info                            : UTF-8 Plain Text
    Language                                : English
    Default                                  : No
    Forced                                  : No









    Código:

    https://www.bigfile.to/file/CVxEkaTB3vEv/panorm3dhd.part01.rar
    https://www.bigfile.to/file/XXKgVMY3HtP2/panorm3dhd.part02.rar
    https://www.bigfile.to/file/pZ2DSvEzYtZy/panorm3dhd.part03.rar
    https://www.bigfile.to/file/pBEGnY8tWPFN/panorm3dhd.part04.rar
    https://www.bigfile.to/file/7tcF4SKMM68t/panorm3dhd.part05.rar
    https://www.bigfile.to/file/rfXeVbtsuAzB/panorm3dhd.part06.rar
    https://www.bigfile.to/file/VACJvxkYwjhb/panorm3dhd.part07.rar
    https://www.bigfile.to/file/M9apJzkYDdFf/panorm3dhd.part08.rar
    https://www.bigfile.to/file/zqwNxWmzz4t3/panorm3dhd.part09.rar
    https://www.bigfile.to/file/BVBfHj8eyuj2/panorm3dhd.part10.rar
    https://www.bigfile.to/file/uUdBsnXdkW43/panorm3dhd.part11.rar
    https://www.bigfile.to/file/JAwM3D8D47Gg/panorm3dhd.part12.rar
    https://www.bigfile.to/file/B9S2stHheb4g/panorm3dhd.part13.rar
    https://www.bigfile.to/file/yyVZXzDYhsxG/panorm3dhd.part14.rar
    https://www.bigfile.to/file/detqw3aHDKqb/panorm3dhd.part15.rar
    https://www.bigfile.to/file/EEUSzeCwx3nM/panorm3dhd.part16.rar
    https://www.bigfile.to/file/ZuEnZdxYHAmU/panorm3dhd.part17.rar
    https://www.bigfile.to/file/pCaB8waafWAE/panorm3dhd.part18.rar
    https://www.bigfile.to/file/s8XNt3y3pb8G/panorm3dhd.part19.rar
    https://www.bigfile.to/file/MzhdYeRr8qJN/panorm3dhd.part20.rar
    https://www.bigfile.to/file/RYxqCuKKNS33/panorm3dhd.part21.rar
    https://www.bigfile.to/file/Y4393WAUqCvq/panorm3dhd.part22.rar
    https://www.bigfile.to/file/WSNkrPB8sgfa/panorm3dhd.part23.rar
    https://www.bigfile.to/file/cyMqERgbw7Gt/panorm3dhd.part24.rar
    https://www.bigfile.to/file/nUp9MsDdTba6/panorm3dhd.part25.rar
    https://www.bigfile.to/file/ZnghRqnVmevf/panorm3dhd.part26.rar
    https://www.bigfile.to/file/fG5VW7cq2FFW/panorm3dhd.part27.rar
    https://www.bigfile.to/file/3X9QVJGRyaKg/panorm3dhd.part28.rar
    https://www.bigfile.to/file/Xbp29rqgw5tp/panorm3dhd.part29.rar
    https://www.bigfile.to/file/BA8gbD3skWQx/panorm3dhd.part30.rar
    https://www.bigfile.to/file/CVtsrMVcEbDN/panorm3dhd.part31.rar
    https://www.bigfile.to/file/TmgJJ2EVqa72/panorm3dhd.part32.rar
    https://www.bigfile.to/file/r2afqXEsJq9P/panorm3dhd.part33.rar
    https://www.bigfile.to/file/HkJX7YCxpzNJ/panorm3dhd.part34.rar
    https://www.bigfile.to/file/FVFmjRbKQUSz/panorm3dhd.part35.rar
    https://www.bigfile.to/file/q9sTzSDyyc9v/panorm3dhd.part36.rar
    https://www.bigfile.to/file/w55gwJpAfGfR/panorm3dhd.part37.rar
    https://www.bigfile.to/file/RwdVNmX8ANSr/panorm3dhd.part38.rar

      Fecha y hora actual: Mar Oct 17, 2017 4:49 pm