JAPAN SUFFERING

EL MEJOR FORO DE DESCARGAS DE MUSICA, JUEGOS Y VIDEOS.

JAPAN SUFFERING FORO DE CALIDAD Y CANTIDAD, SOMOS MAS QUE SOLO UN FORO...

    Piranha 3-D (2010)(3D SBS 1080p)(Ing-Lat)

    Comparte

    pomposos
    JS Guest
    JS Guest

    Mensajes : 5626
    Reputación : 0
    Fecha de inscripción : 29/10/2013

    Piranha 3-D (2010)(3D SBS 1080p)(Ing-Lat)

    Mensaje por pomposos el Lun Mar 06, 2017 8:27 am




    Titulo original Piranha (Piranha 3-D)
    Ano 2010
    Duracion 89 min.
    Pais Estados Unidos
    Director Alexandre Aja
    Guion Alexandre Aja, Josh Stolberg, Pete Goldfinger, Gregory Levasseur (Remake: John Sayles)
    Musica Michael Wandmacher
    Fotografia John R. Leonetti
    Reparto Elisabeth Shue, Adam Scott, Ving Rhames, Jerry O'Connell, Christopher Lloyd, Ricardo Chavira, Dina Meyer, Steven R. McQueen, Jessica Szohr, Kelly Brook, Riley Steele, Paul Scheer, Brooklynn Proulx, Eli Roth, Richard Dreyfuss
    Productora Dimension Films / Chako Film Company / Intellectual Properties Worldwide / The Weinstein Company
    Genero Terror. Accion. Thriller | Comedia de terror. Gore. Animales. Remake. 3-D
    Sinopsis El lago Victoria (Arizona) es un lugar que se llena de gente joven durante las vacaciones de primavera. De repente, se producen una serie de temblores submarinos que liberan unos peces prehistoricos antropofagos. Todos deberan unir sus fuerzas para sobrevivir a estas criaturas. Remake del clasico de terror dirigido por Joe Dante

    Código:

    General
    Unique ID :
    Complete name : Piranha 3D SBS (2010) 1080p Dual.mkv
    Format : Matroska
    Format version : Version 4 / Version 2
    File size : 2.13 GiB
    Duration : 1h 28mn
    Overall bit rate : 3 453 Kbps
    Movie name : Piranha 3D SBS [2010][1080p Dual]
    Encoded date : UTC 2013-06-13 17:25:25
    Writing application : mkvmerge v6.2.0 ('Promised Land') built on Apr 28 2013 12:22:01
    Writing library : libebml v1.3.0 + libmatroska v1.4.0
    Video
    ID : 1
    Format : AVC
    Format/Info : Advanced Video Codec
    Format profile : High@L4.0
    Format settings, CABAC : Yes
    Format settings, ReFrames : 4 frames
    Codec ID : V_MPEG4/ISO/AVC
    Duration : 1h 28mn
    Bit rate : 2 172 Kbps
    Width : 1 920 pixels
    Height : 1 080 pixels
    Display aspect ratio : 16:9
    Frame rate mode : Constant
    Frame rate : 23.976 fps
    Color space : YUV
    Chroma subsampling : 4:2:0
    Bit depth : 8 bits
    Scan type : Progressive
    Bits/(Pixel*Frame) : 0.044
    Stream size : 1.30 GiB (61%)
    Writing library : x264 core 120 r2164 da19765
    Default : Yes
    Forced : No
    Audio #1
    ID : 2
    Format : AC-3
    Format/Info : Audio Coding 3
    Mode extension : CM (complete main)
    Format settings, Endianness : Big
    Codec ID : A_AC3
    Duration : 1h 28mn
    Bit rate mode : Constant
    Bit rate : 640 Kbps
    Channel(s) : 6 channels
    Channel positions : Front: L C R, Side: L R, LFE
    Sampling rate : 48.0 KHz
    Bit depth : 16 bits
    Compression mode : Lossy
    Stream size : 404 MiB (19%)
    Title : spanish
    Default : Yes
    Forced : No
    Audio #2
    ID : 3
    Format : AC-3
    Format/Info : Audio Coding 3
    Mode extension : CM (complete main)
    Format settings, Endianness : Big
    Codec ID : A_AC3
    Duration : 1h 28mn
    Bit rate mode : Constant
    Bit rate : 640 Kbps
    Channel(s) : 6 channels
    Channel positions : Front: L C R, Side: L R, LFE
    Sampling rate : 48.0 KHz
    Bit depth : 16 bits
    Compression mode : Lossy
    Stream size : 404 MiB (19%)
    Title : english
    Default : No
    Forced : No
    Text #1
    ID : 4
    Format : UTF-8
    Codec ID : S_TEXT/UTF8
    Codec ID/Info : UTF-8 Plain Text
    Default : Yes
    Forced : No
    Text #2
    ID : 5
    Format : UTF-8
    Codec ID : S_TEXT/UTF8
    Codec ID/Info : UTF-8 Plain Text
    Title : spanish
    Default : No
    Forced : No








    Código:

    https://www.bigfile.to/file/8ybcwP3KVcQ5/pit103d.part01.rar
    https://www.bigfile.to/file/fQJqm8Vwfyx9/pit103d.part02.rar
    https://www.bigfile.to/file/UkgnncR4xnUu/pit103d.part03.rar
    https://www.bigfile.to/file/EP4xgbg6NxXK/pit103d.part04.rar
    https://www.bigfile.to/file/bSzNPBzCfj7v/pit103d.part05.rar
    https://www.bigfile.to/file/fqRX3jAtVsZd/pit103d.part06.rar
    https://www.bigfile.to/file/EDryNJ9ekfKd/pit103d.part07.rar
    https://www.bigfile.to/file/vpB35vNKNzre/pit103d.part08.rar
    https://www.bigfile.to/file/hKFFWHQS2Xz6/pit103d.part09.rar

      Fecha y hora actual: Miér Oct 18, 2017 3:50 pm